#TITLE:Tempest;
#SUBTITLE:SDO China lv31 - [N]hok[Q] Simfile;
#ARTIST:Nakajima Misaki;
#TITLETRANSLIT:;
#SUBTITLETRANSLIT:;
#ARTISTTRANSLIT:;
#CREDIT:[N]hok[Q];
#BANNER:bn.png;
#BACKGROUND:bg.png;
#LYRICSPATH:;
#CDTITLE:cd.png;
#MUSIC:Tempest.mp3;
#OFFSET:-0.453;
#SAMPLESTART:19.564;
#SAMPLELENGTH:28.444;
#SELECTABLE:YES;
#DISPLAYBPM:135.000;
#BPMS:0.000=135.002,48.000=134.996,49.000=135.002,51.000=134.996,52.000=135.002,54.000=134.996,55.000=135.002,56.000=134.996,57.000=135.002,59.000=134.996,60.000=135.002,62.000=134.996,63.000=135.002,64.000=134.996,65.000=135.002,67.000=134.996,68.000=135.002,70.000=134.996,71.000=135.002,72.000=134.996,73.000=135.002,75.000=134.996,76.000=135.002,78.000=134.996,79.000=135.002,80.000=134.996,81.000=135.002,83.000=134.996,84.000=135.002,86.000=134.996,87.000=135.002,88.000=134.996,89.000=135.002,91.000=134.996,92.000=135.002,94.000=134.996,95.000=135.002,96.000=134.996,97.000=135.002,100.000=134.996,101.000=135.002,104.000=134.996,105.000=135.002,108.000=134.996,109.000=135.002,112.000=134.996,113.000=135.002,116.000=134.996,117.000=135.002,120.000=134.996,121.000=135.002,124.000=134.996,125.000=135.002,128.000=134.996,129.000=135.002,132.000=134.996,133.000=135.002,136.000=134.996,137.000=135.002,140.000=134.996,141.000=135.002,144.000=134.996,145.000=135.002,148.000=134.996,149.000=135.002,152.000=134.996,153.000=135.002,156.000=134.996,157.000=135.002,160.000=134.996,161.000=135.002,164.000=134.996,165.000=135.002,168.000=134.996,169.000=89.764,169.500=272.160,170.000=89.764,170.500=272.160,171.000=135.002,172.000=134.996,173.000=135.002,176.000=134.996,177.000=135.002,180.000=134.996,181.000=135.002,184.000=134.996,185.000=135.002,188.000=134.996,189.000=135.002,192.000=134.996,193.000=135.008,193.500=89.764,193.750=272.109,194.000=89.764,194.250=272.212,194.500=89.764,194.750=272.109,195.000=134.996,196.000=135.002,197.000=134.996,198.000=135.002,199.000=134.996,200.000=135.002,201.000=134.996,202.000=135.002,203.000=134.996,204.000=135.002,205.000=134.996,206.000=135.002,207.000=134.996,208.000=135.002,209.000=134.996,210.000=135.002,211.000=134.996,212.000=135.002,213.000=134.996,214.000=135.002,215.000=134.996,216.000=135.002,217.000=67.499,221.000=134.996,222.000=270.017,223.000=6760.560,223.500=137.746,224.000=134.996,225.000=135.002,226.000=134.996,227.000=135.002,228.000=134.996,229.000=135.002,230.000=134.996,231.000=135.002,232.000=134.996,233.000=135.002,234.000=134.996,235.000=135.002,236.000=134.996,237.000=135.002,238.000=134.996,239.000=135.002,240.000=134.996,241.000=135.002,242.000=134.996,243.000=135.002,244.000=134.996,245.000=135.002,246.000=134.996,247.000=135.002,248.000=134.996,249.000=135.002,250.000=134.996,251.000=135.002,252.000=134.996,253.000=135.002,254.000=134.996,255.000=135.002,256.000=134.996,257.000=135.002,258.000=134.996,259.000=135.002,260.000=134.996,261.000=135.002,262.000=134.996,263.000=135.002,264.000=134.996,265.000=135.002,266.000=134.996,267.000=135.002,268.000=134.996,269.000=135.002,270.000=134.996,271.000=135.002,272.000=134.996,273.000=135.002,274.000=134.996,275.000=135.002,276.000=134.996,277.000=135.002,278.000=134.996,279.000=135.002,280.000=134.996,281.000=135.002,282.000=134.996,283.000=135.002,284.000=134.996,285.000=135.002,286.000=134.996,287.000=135.002,288.000=67.499,294.000=134.996,295.000=135.002,296.000=134.996;
#STOPS:;
#BGCHANGES:;
// cache tags:
#FIRSTBEAT:3.000;
#LASTBEAT:293.250;
#SONGFILENAME:Songs/Super Dancer Online/Tempest/Tempest.sm;
#HASMUSIC:1;
#HASBANNER:1;
#MUSICLENGTH:136.848;
// end cache tags

//---------------dance-single - ----------------
#NOTES:
     dance-single:
     :
     Hard:
     31:
     1.000,1.000,1.000,0.694,1.000,917.000,279.000,95.000,0.000,112.000:
0000
0000
0000
1000
,
0000
1000
0000
0001
,
0000
0000
0000
0000
0000
0000
0000
0000
1001
0000
0000
0000
0000
0000
0000
0000
2000
0000
0000
0000
0000
0000
0000
3000
0110
0000
0000
0000
0010
0000
0000
0000
,
0001
0000
0000
0000
0010
0000
0000
0000
0001
0000
0001
0000
0010
0000
0100
0000
0010
0000
0010
0000
2000
0000
0000
3000
0010
0000
0000
0000
0100
0000
0000
0000
,
1000
0000
0010
0000
1000
1000
0100
0010
0100
0100
0001
0010
0100
1000
0010
1000
,
0001
0000
1000
0000
0010
0000
1000
0000
0001
0000
0001
0000
0100
0000
0010
0000
1000
0000
1000
0000
0020
0000
0000
0030
0100
0000
0001
0000
1000
0000
0001
0000
,
0010
0001
0100
0001
1100
0000
0010
0010
1001
0000
0001
0001
0100
1000
0010
1000
,
0001
0000
1000
0000
0010
0000
1000
0000
0001
0000
1000
0000
0010
0000
1000
0000
0100
0000
0100
0000
0020
0000
0000
0030
0100
0000
1000
0000
0010
0000
1000
0000
,
0001
1000
0010
1000
0001
1000
0100
1000
0011
0010
1100
0000
0102
0010
1000
0010
,
1000
0000
0010
0000
0100
0000
0010
0003
2200
0000
0000
0000
0010
0000
0000
0000
3000
0000
0011
0000
1000
0000
0001
0300
1021
0000
0000
0000
0001
0000
0000
0000
,
2100
0000
0001
0000
0000
0000
0100
3000
0102
0000
0000
0000
0100
0000
0100
0000
1200
0000
1000
0033
1000
0000
0000
0300
1001
0000
0000
0000
1001
0000
0000
0000
,
0110
0000
0000
0000
1001
0000
0000
0000
0010
0000
0010
0000
0101
0000
1000
0000
0010
0000
1000
0000
0020
0000
0000
0030
1001
0000
0000
0000
1010
0000
1000
0000
,
0101
0100
1001
0000
0010
0010
0101
1000
0010
1000
1010
0000
1001
0000
1010
0000
,
0101
0000
0000
0000
1001
0000
0000
0000
0010
0000
0010
0000
1001
0000
1010
0000
0001
0000
1010
0000
1020
0000
0000
0030
1100
0000
0010
0000
0101
0000
0100
0000
,
0011
0001
1100
0000
0110
0000
0100
0100
0011
1000
0001
0001
2110
0000
0011
0000
,
0011
0000
0100
0000
0101
0000
0000
0000
0110
0000
0001
0000
0010
0000
0001
3000
0110
0000
0010
0000
2100
0000
0000
3000
0211
0000
0000
0000
1001
0000
0000
0000
,
1001
0000
1000
0000
0011
0000
0000
0000
1001
0000
1000
0000
0001
0000
0010
0300
1001
0000
0000
0000
0110
0000
0000
0000
0012
0000
1000
0000
0100
0000
1000
0000
,
0010
0000
1000
0000
0100
0000
1000
0003
0220
0000
0000
0000
1000
0000
1000
0300
0000
0000
0001
0000
1000
0000
0100
0030
1102
0000
0000
0000
0010
0000
0000
0000
,
2100
0000
0100
0000
0010
0000
0100
3000
0110
0000
0000
0000
0010
0000
0000
0000
2100
0000
0100
0003
0110
0000
0000
3000
0210
0000
0000
0000
0010
0000
0001
0000
,
0000
0000
0010
0000
0001
0000
0000
0000
1000
0000
0000
0000
1000
0000
1000
0000
0011
0000
0000
0300
0001
0000
0010
0000
2100
0000
0000
0000
0001
3000
0120
0000
,
0001
0000
0100
0030
1002
0000
0000
0000
0010
0000
0010
0000
1000
0000
0100
0000
0010
0000
0010
0000
0103
0000
1000
0000
0210
0000
0000
0000
1000
0000
1000
0000
,
1000
0000
1000
0000
0010
0000
0001
0000
0010
0000
0000
0000
1000
0000
1000
0000
1000
0000
1000
0300
0001
0000
0010
0000
2100
0000
0000
0000
0001
3000
0021
0000
,
1000
0000
1000
0030
0201
0000
0000
0300
1000
0000
0021
0000
0000
0000
0001
0030
2100
0000
0000
3000
0012
0000
0000
0003
1200
0000
0000
0000
0001
0000
0010
0000
,
0000
0000
0001
0000
0010
0000
0000
0000
0001
0000
0000
0000
1000
0000
1000
0000
1000
0000
1000
0300
0010
0000
0010
0000
1002
0000
0100
0000
0010
0003
2000
0000
,
0010
0000
0100
3000
0120
0000
0000
0000
0001
0000
0001
0000
0100
0000
0000
0000
0001
0000
0001
0030
0100
0000
0100
0000
2001
0000
0000
0000
0100
0000
0100
0000
,
0100
0000
0100
0000
0001
0000
0010
0000
0001
0000
0000
0000
0100
0000
0100
3000
0001
0000
0010
0000
0100
0000
1000
0000
0012
0000
0010
0000
1000
0000
0100
0000
,
0120
0000
1000
0000
0100
0000
0000
0030
1000
0000
0000
0000
0010
0000
0010
0003
2100
0000
0010
0000
0011
0000
0100
3000
0011
0000
0000
0000
1100
0000
0010
0000
,
0011
0000
0010
0000
1100
0000
0000
0000
0010
0000
0010
0000
1100
0000
0011
0000
1000
0000
0011
0000
2100
0000
0000
3000
0110
0000
0000
0000
0100
0000
0100
0000
,
0010
0010
1100
0000
0011
0100
0011
1100
0001
1100
0011
0100
1001
0000
0110
0000
,
1010
0000
0000
0000
0101
0000
0000
0000
0010
0000
0010
0000
1001
0000
0110
0000
0001
0000
1010
0000
0201
0000
0000
0300
0011
0000
0100
0000
0011
0000
0000
0000
,
1100
0010
1100
0001
1100
0010
1000
1000
0011
1000
0001
0001
1010
0001
1010
0000
,
1001
0000
0000
0000
1010
0000
0000
0000
0001
0000
0000
0000
0110
0000
1001
0000
0010
0000
0110
0000
1002
0000
0000
0003
1010
0000
0000
0000
1001
0000
1000
0000
,
0010
0000
1010
0000
1001
0000
0000
0000
0010
0000
0000
0000
0120
0000
1001
0000
0101
0000
0000
0000
1001
0000
0000
0030
1101
0000
0000
0000
0011
0000
0000
0000
,
1010
0000
1010
0000
1011
0000
0100
1000
0011
0100
0010
0010
1102
0000
0100
0010
,
2100
0000
0010
0000
0010
0000
0000
3003
0100
0000
0100
0000
0010
0000
1000
0000
0210
0000
0010
0000
1000
0000
0310
0000
1101
0000
0001
0000
0110
0000
0000
0000
,
0110
0010
0100
0100
0012
0000
1000
0100
0010
0010
0100
0013
1100
0000
0011
0100
,
0011
0000
0100
0100
2001
0001
0100
0010
0001
0001
0010
3100
0011
0000
1000
0011
,
1100
0000
1000
1000
0012
1000
0100
1000
0010
1000
0010
1003
0110
0000
0100
0110
,
0010
0010
0110
0000
1201
0011
1000
1000
0011
0001
1000
1300
0011
0000
1100
0001
,
0110
0100
0010
0100
1002
0000
0010
0010
1100
0010
1000
1003
0110
0000
0110
0100
,
1001
0010
0100
0010
2001
0000
0100
0100
0011
0100
0001
3001
1100
0000
0011
1000
,
0120
1000
0001
0031
1100
0000
2010
0001
0120
0001
0100
3130
0110
0000
0100
0010
,
2102
0000
0010
0000
0100
0000
3103
0000
0120
0000
0000
0000
0000
0000
0000
0030
2001
0000
0000
0000
0000
0000
0000
3000
0110
0000
0010
0000
0100
0000
1000
0000
,
0001
0010
0100
1000
1000
0100
0010
0001
1100
0000
0100
0001
2100
0010
0001
0010
,
0100
0010
0100
3001
0110
0010
0100
1000
0001
0010
0100
1000
0100
0010
0001
0000
,
1100
0000
0100
0001
1012
0000
0110
0000
1000
0010
0100
0013
1100
0100
0010
0001
,
1000
0100
0010
0001
0010
0100
1000
0000
0011
0000
0010
1000
0112
0000
1010
0000
,
0100
0010
1000
0003
1100
0100
0010
0001
0001
0010
0100
1000
0001
0010
0100
0000
,
2001
0000
0100
3010
0100
0100
0110
0000
1002
0000
0110
0003
2100
0010
0001
0100
,
0100
0010
0001
0100
0100
0010
0001
3000
0021
0000
0001
0100
2001
0000
0100
0000
,
0100
0000
0001
3031
1200
0010
0001
1000
1000
0010
0001
1000
1000
0010
0001
0310
,
1002
0000
1000
0010
2100
0000
0010
3000
1000
0100
0010
1003
0210
0000
1000
0000
,
0010
1000
0000
1000
0010
0001
1000
1300
0011
0000
1100
0000
1100
0000
1001
0000
,
0011
0000
1001
0000
0221
1000
1000
0000
0001
1000
0001
0000
0001
1000
0001
1000
,
0000
0000
0001
0000
1000
0000
0330
0000
2102
0010
0100
0010
0100
0000
0010
0000
0010
0000
0100
0000
0010
0000
0100
0000
0000
0000
0100
0000
0000
0000
0000
0000
,
0000
0000
0000
0000
3003
0000
0000
0200
0000
0000
0000
0000
0300
0000
0000
0000
,
0011
0000
0000
0000
1100
0000
0000
0000
1100
0000
0010
0000
1100
0000
0000
0000
0010
0000
0010
0000
0100
0000
0010
0000
1100
0000
0010
0000
2000
0000
0000
3000
,
0110
0000
0100
0010
1100
0100
0011
0000
0100
0100
0001
0010
1100
0010
0100
0000
,
0011
0000
0100
0000
0001
0000
0010
0000
1100
0000
0010
0000
0100
0000
0000
0000
0010
0000
0010
0000
1000
0000
0100
0000
0011
0000
0100
0000
0020
0000
0000
0030
,
1001
0100
0010
0100
1100
0000
1000
1000
0011
0000
1000
1000
0110
0010
0100
0010
,
1001
0000
0000
0000
0110
0000
0000
0000
0110
0000
0100
0000
0010
0000
0000
0000
1100
0000
0000
0000
0001
0000
0010
0000
0110
0000
0010
0000
0200
0000
0000
0300
,
0011
0000
1000
0100
0110
0010
0100
0000
0011
0001
1000
0100
0011
0000
1100
0010
,
1001
0000
0000
0000
0110
0000
0010
0000
1100
0000
0100
0000
0011
0000
0000
0000
2100
0000
0000
0000
0001
0000
0100
3000
0001
0000
0011
0000
1100
0000
1000
0000
,
0012
0000
0000
0000
1000
0000
1000
0000
0210
0000
0010
0000
1000
0000
0000
0300
2000
0000
0010
0000
0100
0000
0100
0000
0013
0000
0010
0000
0100
0000
0100
3000
,
0111
0000
0010
0000
1100
0000
0000
0000
1100
0000
0010
0000
1100
0000
0001
0000
0110
0000
0000
0000
0100
0000
0010
0000
0100
0000
0100
0000
0020
0000
0000
0030
,
1100
0100
0011
0000
0011
0000
0011
0100
0011
0100
0011
1000
0010
0010
1000
0010
,
0110
0000
0000
0000
0100
0000
0010
0000
1100
0000
0100
0000
0011
0000
0000
0000
1100
0000
0100
0000
0001
0000
0011
0000
0110
0000
0100
0000
0020
0000
0000
0030
,
1100
0100
0011
1000
0011
0100
0010
0000
1100
0000
1000
1000
0011
0001
0100
0100
,
0011
0000
0000
0000
1100
0000
0010
0000
1100
0000
0010
0000
1100
0000
0000
0000
0011
0000
0000
0000
1000
0000
0100
0000
0110
0000
0010
0000
0200
0000
0000
0300
,
0011
0000
0000
0000
1100
0000
1000
0000
0011
0000
0100
0000
0011
0000
0000
0000
1000
0000
0000
0000
2001
0000
0010
0000
0101
0000
0000
0000
0110
0000
0000
3000
,
0112
0000
0000
0000
1000
0000
0100
0000
0010
0000
0010
0000
1000
0000
0000
0003
1120
0000
0000
0000
0001
0000
0001
0000
1000
0000
1000
0000
0001
0000
0100
0030
,
2101
0000
0000
0000
0100
0000
0100
0000
0012
0000
0010
0000
0100
0000
0010
3003
0100
0000
0100
0000
0010
0000
1000
0000
0210
0000
1000
0000
0010
0000
0000
0300
,
2001
0000
0000
0000
0000
0000
0100
0000
0010
0000
0001
0001
0010
0000
0100
0000
0010
3100
0001
0010
0010
0001
0010
0100
1000
0100
0000
0010
0010
0100
0010
0001
,
0000
0010
0010
0100
0000
0010
0001
0000
1000
0100
0011
0000
0000
0000
0000
0000
0000
0000
0000
0000
0000
0000
0000
0000
0000
0000
0000
0000
0000
0000
0000
0000
,
0000
0000
0000
0000
,
0000
0000
0000
0000
,
0000
0000
0000
0000
;

//---------------dance-solo - ----------------
#NOTES:
     dance-solo:
     :
     Hard:
     31:
     1.000,1.000,1.000,0.694,1.000,917.000,281.000,95.000,0.000,109.000:
000000
000000
000000
001000
,
000000
001000
000000
000001
,
000000
000000
000000
000000
000000
000000
000000
000000
001001
000000
000000
000000
000000
000000
000000
000000
002000
000000
000000
000000
000000
000000
000000
003000
000110
000000
000000
000000
000010
000000
000000
000000
,
000001
000000
000000
000000
000010
000000
000000
000000
010000
000000
010000
000000
100000
000000
000100
000000
100000
000000
100000
000000
002000
000000
000000
003000
000010
000000
000000
000000
000100
000000
000000
000000
,
001000
000000
000010
000000
001000
001000
000100
000010
000100
000100
000001
000010
000100
001000
000010
010000
,
000010
000000
010000
000000
000010
000000
010000
000000
000001
000000
000001
000000
000100
000000
100000
000000
001000
000000
001000
000000
200000
000000
000000
300000
000100
000000
010000
000000
001000
000000
000001
000000
,
000010
000001
000100
000001
001100
000000
100000
100000
011000
000000
010000
010000
000100
001000
000010
001000
,
000001
000000
001000
000000
000010
000000
001000
000000
000001
000000
100000
000000
000010
000000
100000
000000
010000
000000
010000
000000
000020
000000
000000
000030
000100
000000
001000
000000
000010
000000
001000
000000
,
000001
001000
000010
010000
000001
010000
000100
010000
000011
000010
010100
000000
000102
000010
001000
000010
,
001000
000000
100000
000000
000100
000000
100000
000003
020200
000000
000000
000000
100000
000000
000000
030000
000000
000000
100001
000000
010000
000000
000001
000300
001021
000000
000000
000000
100000
000000
000000
000000
,
002100
000000
100000
000000
000000
000000
000100
003000
210000
000000
000000
000000
010000
000000
010000
000000
001200
000000
001000
300030
001000
000000
000000
000300
001001
000000
000000
000000
001001
000000
000000
000000
,
000110
000000
000000
000000
010001
000000
000000
000000
000010
000000
000010
000000
000101
000000
010000
000000
000010
000000
010000
000000
010020
000000
000000
000030
001001
000000
000000
000000
010010
000000
010000
000000
,
000101
000100
010001
000000
100000
100000
000101
001000
100000
001000
101000
000000
010001
000000
010010
000000
,
000101
000000
000000
000000
001001
000000
000000
000000
000100
000000
000100
000000
010010
000000
010100
000000
000001
000000
001010
000000
001020
000000
000000
000030
101000
000000
000010
000000
000101
000000
000100
000000
,
000011
000001
101000
000000
100010
000000
100000
100000
010010
001000
010000
010000
002110
000000
010010
000000
,
010010
000000
000100
000000
010100
000000
000000
000000
000110
000000
000001
000000
000010
000000
000001
003000
000110
000000
000010
000000
002100
000000
000000
003000
100210
000000
000000
000000
101000
000000
000000
000000
,
101000
000000
001000
000000
100010
000000
000000
000000
001001
000000
001000
000000
000001
000000
000010
000300
001001
000000
000000
000000
000110
000000
000000
000000
000012
000000
010000
000000
000100
000000
010000
000000
,
000010
000000
010000
000000
100000
000000
001000
000003
200020
000000
000000
000000
001000
000000
001000
000000
300000
000000
000001
000000
001000
000000
000100
000030
201100
000000
000000
000000
000010
000000
000000
000000
,
021000
000000
001000
000000
000010
000000
001000
030000
001010
000000
000000
000000
000010
000000
000000
000000
002100
000000
000100
300000
000110
000000
000000
003000
000210
000000
000000
000000
000010
000000
000001
000000
,
000000
000000
010000
000000
000001
000000
000000
000000
001000
000000
000000
000000
001000
000000
001000
000000
010001
000000
000000
000300
000001
000000
010000
000000
002100
000000
000000
000000
000001
003000
000120
000000
,
000001
000000
000100
000030
010002
000000
000000
000000
000010
000000
000010
000000
001000
000000
000100
000000
000010
000000
000010
000000
000103
000000
001000
000000
200010
000000
000000
000000
010000
000000
010000
000000
,
010000
000000
010000
000000
000010
000000
000001
000000
000010
000000
000000
000000
001000
000000
001000
000000
001000
000000
001000
300000
000001
000000
000010
000000
002100
000000
000000
000000
010000
003000
010020
000000
,
001000
000000
001000
000030
010200
000000
000000
000300
001000
000000
210000
000000
000000
000000
010000
300000
002100
000000
000000
003000
000012
000000
000000
000003
001200
000000
000000
000000
000001
000000
000010
000000
,
000000
000000
000001
000000
000010
000000
000000
000000
000001
000000
000000
000000
001000
000000
001000
000000
001000
000000
001000
000300
000010
000000
000010
000000
100002
000000
010000
000000
000100
000003
002000
000000
,
000010
000000
000100
003000
010020
000000
000000
000000
000001
000000
000001
000000
010000
000000
000000
000000
000001
000000
000001
000030
010000
000000
010000
000000
002001
000000
000000
000000
000100
000000
000100
000000
,
000100
000000
000100
000000
000001
000000
000010
000000
000001
000000
000000
000000
010000
000000
010000
003000
000001
000000
000010
000000
010000
000000
001000
000000
200010
000000
000010
000000
001000
000000
000100
000000
,
000120
000000
001000
000000
000100
000000
000000
000030
001000
000000
000000
000000
000010
000000
000010
300000
002100
000000
010000
000000
010001
000000
000100
003000
010001
000000
000000
000000
101000
000000
000010
000000
,
000011
000000
000010
000000
101000
000000
000000
000000
000100
000000
000100
000000
101000
000000
000011
000000
001000
000000
000011
000000
102000
000000
000000
003000
010010
000000
000000
000000
010000
000000
010000
000000
,
000010
000010
011000
000000
000011
010000
000011
011000
000001
011000
100001
000100
001001
000000
100100
000000
,
101000
000000
000000
000000
000101
000000
000000
000000
000010
000000
000010
000000
011000
000000
000110
000000
010000
000000
001010
000000
010200
000000
000000
000300
010010
000000
000100
000000
010010
000000
000000
000000
,
100100
000010
100100
000001
100100
000010
100000
100000
000011
001000
000001
000001
001010
010000
001010
000000
,
011000
000000
000000
000000
001010
000000
000000
000000
010000
000000
000000
000000
000110
000000
001001
000000
000010
000000
000110
000000
100002
000000
000000
000003
100010
000000
000000
000000
100001
000000
100000
000000
,
000010
000000
100010
000000
100001
000000
000000
000000
000010
000000
000000
000000
000120
000000
011000
000000
010100
000000
000000
000000
011000
000000
000000
000030
011100
000000
000000
000000
010010
000000
000000
000000
,
101000
000000
101000
000000
101001
000000
000100
001000
100001
000100
100000
100000
001102
000000
000100
000010
,
002100
000000
000010
000000
000010
000000
000000
003003
010000
000000
010000
000000
000010
000000
001000
000000
020010
000000
000010
000000
001000
000000
030010
000000
011001
000000
000001
000000
010010
000000
000000
000000
,
010010
000010
000100
000100
000012
000000
001000
010000
000010
000010
010000
100003
001100
000000
100001
000100
,
100001
000000
000100
000100
002001
000001
000100
000010
100000
100000
000010
003100
100010
000000
001000
100010
,
001100
000000
010000
010000
000012
010000
000100
010000
000010
010000
000010
001003
000110
000000
000100
100100
,
100000
100000
100100
000000
001201
100001
001000
001000
000011
000001
001000
001300
000011
000000
010100
000001
,
100010
100000
000010
100000
010002
000000
000010
000010
010100
000010
010000
010003
100100
000000
100100
000100
,
001001
100000
000100
100000
002001
000000
000100
000100
100010
000100
100000
103000
010100
000000
000011
010000
,
000120
010000
000001
000031
010100
000000
020010
000001
000120
000001
000100
030130
100010
000000
100000
000010
,
102002
000100
100000
103003
100200
000000
000000
000300
002001
000000
000000
003000
000110
000010
000100
001000
,
000001
000010
010000
001000
001000
010000
000010
000001
011000
000000
010000
000001
002100
000010
000001
000010
,
100000
000010
100000
003001
100010
000010
100000
001000
000001
000010
000100
001000
000100
000010
000001
000000
,
001100
000000
000100
000001
001012
000000
000110
000000
001000
010000
000100
010003
001100
000100
010000
000001
,
001000
000100
010000
000001
010000
000100
001000
000000
100010
000000
000010
001000
200101
000000
001001
000000
,
000100
000001
010000
300000
010100
000100
000010
000001
000001
000010
000100
001000
000001
000010
010000
000000
,
002001
000000
010000
003010
010000
010000
010010
000000
001002
000000
000110
000003
210000
000010
000001
010000
,
010000
000100
000010
010000
010000
000010
000001
300000
000021
000000
000001
000100
002001
000000
000100
000000
,
000100
000000
010000
013030
001200
000010
010000
001000
001000
000010
010000
001000
001000
000010
000001
000310
,
100002
000000
100000
000010
200100
000000
000010
300000
100000
000100
000010
001003
020010
000000
001000
000000
,
000010
001000
000000
001000
000010
000001
001000
031000
000011
000000
100100
000000
100100
000000
100001
000000
,
010010
000000
011000
000000
210020
001000
001000
000001
001000
000000
000001
000000
000001
001000
000001
001000
,
000000
000000
000001
000000
001000
000000
300030
000000
002102
100000
000100
100000
000100
000000
010000
000000
010000
000000
000010
000000
010000
000000
000010
000000
000000
000000
000010
000000
000000
000000
000000
000000
,
000000
000000
000000
000000
003003
000000
000000
000200
000000
000000
000000
000000
000300
000000
000000
000000
,
000011
000000
000000
000000
001100
000000
000000
000000
101000
000000
000010
000000
101000
000000
000000
000000
000010
000000
000010
000000
100000
000000
000010
000000
101000
000000
000010
000000
002000
000000
000000
003000
,
000110
000000
000100
000010
001100
000100
010001
000000
000100
000100
000001
010000
001100
010000
000100
000000
,
010001
000000
100000
000000
000001
000000
000010
000000
101000
000000
000010
000000
100000
000000
000000
000000
000010
000000
000010
000000
001000
000000
100000
000000
000011
000000
100000
000000
000020
000000
000000
000030
,
001001
000100
000010
000100
010100
000000
010000
010000
000011
000000
001000
001000
100100
100000
000100
100000
,
001001
000000
000000
000000
100100
000000
000000
000000
100100
000000
000100
000000
100000
000000
000000
000000
001100
000000
000000
000000
000001
000000
000010
000000
010010
000000
000010
000000
020000
000000
000000
030000
,
000011
000000
001000
010000
010010
000010
010000
000000
000011
000001
001000
000100
100001
000000
001100
100000
,
001001
000000
000000
000000
100100
000000
100000
000000
010100
000000
000100
000000
100001
000000
000000
000000
002100
000000
000000
000000
000001
000000
000100
003000
000001
000000
000011
000000
101000
000000
001000
000000
,
000012
000000
000000
000000
010000
000000
010000
000000
200010
000000
000010
000000
001000
000000
000000
300000
001000
000000
000010
000000
000100
000000
000100
000000
012003
000000
010000
000000
000100
000000
000100
003000
,
010101
000000
010000
000000
101000
000000
000000
000000
101000
000000
000010
000000
101000
000000
000001
000000
100010
000000
000000
000000
100000
000000
000010
000000
100000
000000
100000
000000
000020
000000
000000
000030
,
001100
000100
010001
000000
010001
000000
010001
000100
010001
000100
010001
001000
010000
010000
001000
000100
,
000110
000000
000000
000000
000100
000000
000010
000000
101000
000000
100000
000000
000011
000000
000000
000000
101000
000000
100000
000000
000001
000000
000011
000000
100010
000000
100000
000000
000020
000000
000000
000030
,
001100
000100
000011
001000
010001
000100
010000
000000
001100
000000
001000
001000
010001
000001
000100
000100
,
010001
000000
000000
000000
101000
000000
000010
000000
101000
000000
000010
000000
101000
000000
000000
000000
000011
000000
000000
000000
001000
000000
000100
000000
000110
000000
000010
000000
000200
000000
000000
000300
,
010010
000000
000000
000000
001100
000000
001000
000000
010010
000000
000100
000000
010010
000000
000000
000000
001000
000000
000000
000000
012000
000000
000010
000000
010100
000000
000000
000000
000110
000000
000000
003000
,
100012
000000
000000
000000
001000
000000
100000
000000
000010
000000
000010
000000
001000
000000
000000
000003
101020
000000
000000
000000
000001
000000
000001
000000
001000
000000
001000
000000
000001
000000
000100
000030
,
102100
000000
000000
000000
000100
000000
000100
000000
200010
000000
000010
000000
010000
000000
000010
303000
010000
000000
010000
000000
000010
000000
001000
000000
000210
000000
001000
000000
000010
000000
000000
000300
,
020001
000000
000000
000000
000000
000000
001000
000000
000010
000000
000001
000001
000010
000000
001000
000000
000010
031000
000001
000010
000010
000001
100000
000100
001000
000100
000000
100000
100000
000100
100000
000001
,
000000
100000
100000
000100
000000
100000
000001
000000
001000
000100
000011
000000
000000
000000
000000
000000
000000
000000
000000
000000
000000
000000
000000
000000
000000
000000
000000
000000
000000
000000
000000
000000
,
000000
000000
000000
000000
,
000000
000000
000000
000000
,
000000
000000
000000
000000
;
